How it works | IPTV Extreme | Read More

7am Arivu ( 2011) - Tamil movie - Five Star DVDRip.Xvid - ESubs

seeders: 5
leechers: 3
updated:
Added in Movies > Asian
Torrent verified. Downloaded 404 times.

DownloadFast Safe Anonymous
movies, software, shows...
Summary:

A genetic engineering student tries to bring back the skills of a legend of the past and use his skills to save India from a deadly virus attack by China.

Written by Man2016noW57.47K
Available in versions: 720pHDRiPDVDRipTVRip
7am Arivu ( 2011) - Tamil movie - Five Star DVDRip.Xvid - ESubs (Size: 707.84 MB)
  7am Arivu ( 2011) - Tamil movie - Five Star DVDRip - ESubs - Moviejockey.com.avi 707.84 MB

Description

7am Arivu ( 2011) - Tamil movie - Five Star DVDRip - ESubs -
Format : AVI
Format/Info : Audio Video Interleave
File size : 708 MiB
Duration : 2h 38mn
Overall bit rate : 624 Kbps

Video
ID : 0
Format : MPEG-4 Visual
Format profile : Advanced [email protected]
Format settings, BVOP : 2
Format settings, QPel : Yes
Format settings, GMC : No warppoints
Format settings, Matrix : Default (H.263)
Codec ID : XVID
Codec ID/Hint : XviD
Duration : 2h 38mn
Bit rate : 553 Kbps
Width : 608 pixels
Height : 288 pixels
Display aspect ratio : 2.2:1
Frame rate : 25.000 fps
Color space : YUV
Chroma subsampling : 4:2:0
Bit depth : 8 bits
Scan type : Progressive
Compression mode : Lossy
Bits/(Pixel*Frame) : 0.126
Stream size : 628 MiB (89%)

Audio
ID : 1
Format : MPEG Audio
Format version : Version 2
Format profile : Layer 3
Mode : Joint stereo
Mode extension : MS Stereo
Codec ID : 55
Codec ID/Hint : MP3
Duration : 2h 38mn
Bit rate mode : Constant
Bit rate : 64.0 Kbps
Channel(s) : 2 channels
Sampling rate : 24.0 KHz
Compression mode : Lossy
Stream size : 72.7 MiB (10%)

7am Arivu ( 2011) - Tamil movie - Five Star DVDRip - ESubs - MJY

http://img\s1.imageshack.us/img26/2690/shot0012fb.png

http://img\s1.imageshack.us/img521/6976/shot0013l.png

http://img\s1.imageshack.us/img10/4945/shot0016u.png

http://img\s1.imageshack.us/img705/294/shot0018p.png

http://img\s1.imageshack.us/img715/1041/shot0019y.png

Related Torrents

torrent name size files age seed leech

Sharing Widget


Download torrent
707.84 MB
seeders:4
leechers:0
7am Arivu ( 2011) - Tamil movie - Five Star DVDRip.Xvid - ESubs



To share this torrent use the code below and insert it into comments, status messages, forum posts or your signature.

Torrent: 7am Arivu ( 2011) - Tamil mo...ive Star DVDRip.Xvid - ESubs

Trackers

tracker name
udp://tracker.openbittorrent.com:80/announce
udp://tracker.publicbt.com:80/announce
udp://tracker.coppersurfer.tk:6969/announce
udp://glotorrents.pw:6969/announce
µTorrent compatible trackers list

Locations

name
ThePirateBay
Torrent hash: 11a20b9e26a323a480080aa3235ba1cd3092b9f5

All Comments

audio
6/10
video
6/10
please, leave only comments related to that torrent
Sign In

User Opinions

macmanda57.8K, Samtapes45.95K, ara_8682303, atkannan1124, tippud11070, randmate285, RamMani143, amandis58, Daybreaker20, comanche755 ... And 38 more
sansii570, fadz141498, mutualgrid30
Report a bug Open chat