Register a new account | How I Met Your Mother 2. Sezon | もっと

AstroBoy Brip 720p [A BsbtRG H.264 Release] - Yogi-Bear @ blackstarbt.mp4

seeders: 0
leechers: 0
updated:
Added in Movies
Torrent verified. Downloaded 10 times.

DownloadFast Safe Anonymous
movies, software, shows...
Summary:

When an android replica of a boy is rejected by his aggrieved creator, he goes off to find his own identity in an adventure that would make him his time's greatest hero.

Written by Mr.PD143.96K
Available in versions: 1080pHDRiPDVDDVDRip
AstroBoy Brip 720p [A BsbtRG H.264 Release] - Yogi-Bear @ blackstarbt.mp4 (Size: 1.08 GB)
  AstroBoy Brip 720p [A BsbtRG H.264 Release] - Yogi-Bear @ blackstarbt

Description


Title : AstroBoy Brip 720p [A BsbtRG H.264 Release] - Yogi-Bear @ blackstarbt.mp4

Genre: Animation | Action | Family | Sci-Fi

Format : MPEG-4[/color]

Format profile : Base Media / Version 2

Codec ID :mp42

File size :1.08 GiB

Duration : 1h 33mn

Overall bit rate :1 648 Kbps













Video

ID : 1

Format : AVC

Format/Info : Advanced Video Codec

Format profile : [email protected]

Format settings, CABAC : Yes

Format settings, ReFrames : 6 frames

Codec ID : avc1

Codec ID/Info : Advanced Video Coding

Duration : 1h 33mn

Bit rate mode : Variable

Bit rate : 1 036 Kbps

Width : 624 pixels

Height : 464 pixels

Display aspect ratio : 1.552

Frame rate mode : Variable

Frame rate : 23.917 fps

Minimum frame rate : 11.987 fps

Maximum frame rate : 23.981 fps

Color space : YUV

Chroma subsampling : 4:2:0

Bit depth : 8 bits

Scan type : Progressive

Bits/(Pixel*Frame) : 0.150

Stream size : 695 MiB (63%)



Audio #1

ID : 2

Format : AAC

Format/Info : Advanced Audio Codec

Format version : Version 4

Format profile : LC

Format settings, SBR : No

Codec ID : 40

Duration : 1h 33mn

Bit rate mode : Variable

Bit rate : 160 Kbps

Maximum bit rate : 227 Kbps

Channel(s) : 2 channels

Channel positions : Front: L R

Sampling rate : 48.0 KHz

Stream size : 107 MiB (10%)





Audio #2

ID : 3

Format : AC-3

Format/Info : Audio Coding 3

Mode extension : CM (complete main)

Codec ID : ac-3

Duration : 1h 33mn

Bit rate mode : Constant

Bit rate : 448 Kbps

Channel(s) : 6 channels

Channel positions : Front: L C R, Side: L R, LFE

Sampling rate : 48.0 KHz

Bit depth : 16 bits

Stream size : 301 MiB (27%)









Film Info







Cast: Nicolas Cage ... Dr. Tenma (voice)

Kristen Bell ... Cora (voice)

Samuel L. Jackson ... Zog (voice)

Charlize Theron ... 'Our Friends' Narrator (voice)

Bill Nighy ... Dr. Elefun / Robotsky (voice)

Freddie Highmore ... Astro Boy (voice)

Donald Sutherland ... President Stone (voice)

Elle Fanning ... Grace (voice)

Madeline Carroll ... Widget (voice)

Alan Tudyk ... Mr. Squeegee / Scrapheap Head / Stinger Two (voice)

Moises Arias ... Zane (voice)

Matt Lucas ... Sparx (voice)

Nathan Lane ... Ham Egg (voice)

Ryan Stiles ... Mr. Moustachio / Burning Robot (voice)

Eugene Levy ... Orrin (voice)

Dee Bradley Baker ... Trashcan (voice)

Sterling Beaumon ... Sludge (voice)

David Alan Grier ... Mr. Squirt / Math Cowboy / Boxer Robot (voice)

David Bowers ... Mike the Fridge (voice)

Newell Alexander ... General Heckler (voice)

Victor Bonavida ... Sam (voice)

Tony Matthews ... Cora's Dad (voice)

Bob Logan ... Stinger One (voice)







Plot: Set in futuristic Metro City, Astro Boy is about a young robot with incredible

powers created by a brilliant scientist in the image of the son he has lost. Unable

to fulfill the grieving man's expectations, our hero embarks on a journey in search

of acceptance, experiencing betrayal and a netherworld of robot gladiators, before

he returns to save Metro City and reconcile with the father who had rejected him.



@@@@@@@@@@@@@@@@@@@@@@@@@@@@@@@@@@@@@@@@@@@@@@@@@@@@@@@@@@@@@@@@@@@@@@@@@@@@@@@@

trackers

@@@@@@@@@@@@@@@@@@@@@@@@@@@@@@@@@@@@@@@@@@@@@@@@@@@@@@@@@@@@@@@@@@@@@@@@@@@@@@@@







@@@@@@@@@@@@@@@@@@@@@@@@@@@@@@@@@@@@@@@@@@@@@@@@@@@@@@@@@@@@@@@@@@@@@@@@@@@@@@@@



@@@@@@@@@@@@@@@@@@@@@@@@@@@@@@@@@@@@@@@@@@@@@@@@@@@@@@@@@@@@@@@@@@@@@@@@@@@@@@@@



blackstarbt .Txt File - open and read with system notepad



@@@@@@@@@@@@@@@@@@@@@@@@@@@@@@@@@@@@@@@@@@@@@@@@@@@@@@@@@@@@@@@@@@@@@@@@@@@@@@@@






Sharing Widget


Download torrent
1.08 GB
seeders:0
leechers:0
AstroBoy Brip 720p [A BsbtRG H.264 Release] - Yogi-Bear @ blackstarbt.mp4



To share this torrent use the code below and insert it into comments, status messages, forum posts or your signature.

Torrent: AstroBoy Brip 720p [A BsbtRG... Yogi-Bear @ blackstarbt.mp4

Trackers

tracker name
udp://tracker.openbittorrent.com:80/announce
udp://tracker.publicbt.com:80/announce
http://nemesis.1337x.org/announce
http://tracker.openbittorrent.com/announce
http://fr33dom.h33t.com:3310/announce
http://tracker.publicbt.com/announce
µTorrent compatible trackers list

Locations

name
1337x
Torrent hash: 0da25b79dcce591734e4f22f4aa5d74f684d6449

All Comments

audio
0/10
video
0/10
please, leave only comments related to that torrent
Sign In

Report a bug Open chat